sex the big bang theory Fortitude ETRG black mirror windows 10 christmas 1080p 2018 ethd 1080P 2018 ita bbc 0 WWE 2 a star is born xxx the walking dead 1 fantastic beasts hindi halloween 2018 bird box anal supernatural evo bumblebee ddr The Flash titans venom ita Ralph Breaks the Internet italian ettv venom animali fantastici game of thrones a simple favor black mirror bandersnatch Bandersnatch Aquaman ita 2018 you fortitude s03 outlander mary poppins fgt the predator Evo vikings s05e15 2160p porn bohemian rhapsody ita bohemian rhapsody IT ray donovan UHD etrg tushyraw 1080p.mp4-ktr etmovies Vikings dtone Dogfart summer big bang theory español arrow ita tushy 18.12 1080p.mp4-ktr Doctor Who Jurassic World AMICI COME PRIMA 
Warning! Do not Download Without a VPN!
Your IP Address is .   Location is
Download and surf securely, stream unlimited and protect your personal data!
We strongly recommend using SpyOFF VPN!
Become Anonymous with SpyOFF
ETTV Recommended TV Shows
Letterkenny.S06.720p.HULU.WEB-DL.AAC2.0.H.264-NTb[ettv] torrent
The.ABC.Murders.S01E02.WEBRip.x264-TBS[ettv] torrent
Into.The.Dark.2018.S01E04.720p.WEBRip.x264-TBS[ettv] torrent
Deadly.Class.S01E01.Reagan.Youth.720p.AMZN.WEB-DL.DDP5.1.H.264-NTG[ettv] torrent

ETTV Recommended SD
A Soldiers Creed.2018.HDRip.XviD.AC3-EVO torrent
White Rabbit 2018.HDRip.XviD.AC3-EVO torrent
The.Oath.2018.HDRip.XViD-ETRG torrent
When.the.Angels.Sleep.2018.HDRip.XviD.AC3-EVO torrent

ETTV Recommended HD
Fahrenheit 11 9 2018.1080p.Blu-ray.HEVC.DTS-HD MA.5.1-DTOne torrent
Bob Marley & The Wailers.Easy Skanking In Boston \'78.2015.Bluray.1080p.HEVC.LPCM.2.0-DTone torrent
A-X-L 2018.Multi.BluRay.1080p.HEVC.DTS-HDMA.5.1-DTOne torrent
The.Oath.2018.1080p.WEB-DL.DD5.1.H264-CMRG[EtHD] torrent

ETTV Recommended UHD
Captain.Underpants.The.First.Epic.Movie.2017.Multi.2160p.UHD.BluRay.x265.HDR.Atmos.7.1[En+Hi]-DTOne torrent
Die.Hard.1988.Multi.2160p.UHD.BluRay.X265.DTS-HDMA.5.1[En+Hi]-DTOne torrent
Exodus.Gods and Kings.2014.Multi.2160p.UHD.BluRay.x265.HDR.DTS.5.1.[En+Hi]-DTOne torrent
Inception.2010.Multi.2160p.UHD.Bluray.x265.DTS-HDMA.5.1.[En+Hi]-DTOne torrent

ETTV Recommended Cam
Aquaman.2018.HDTC.x264.AC3-ETRG torrent
Mary Poppins Returns.2018.HDCAM.XViD.AC3-ETRG torrent
The Mule 2018 HDCAM XViD.AC3-ETRG torrent
Bumblebee 2018 NEW HDTS x264 AC3-ETRG torrent

ETTV Recommended Foreign
SIMMBA.(2018).1-3.Desi.CAMRip.x264.AAC.DTOne torrent
Cars.3.2017.Multi.2160p.UHD.BluRay.x265.HDR.Atmos.7.1.[En+Hi]-DTOne torrent
Chappie.2015.Multi.2160p.UHD.BluRay.x265.HDR.Atmos.7.1[En+Hi]-DTOne torrent
Divergent.2014.Multi.2160p.UHD.BluRay.x265.HDR.DTS-HDMA.7.1[En+Hi]-DTOne torrent


Download Torrent "Divergent.2014.Multi.2160p.UHD.BluRay.x265.HDR.DTS-HDMA.7.1[En+Hi]-DTOne"

IMDB Details
Description:

In a world divided by factions based on virtues, Tris learns she's Divergent and won't fit in. When she discovers a plot to destroy Divergents, Tris and the mysterious Four must find out what makes Divergents dangerous before it's too late.

Genre:

Action, Adventure, Mystery, Sci-Fi

Download Torrent (Magnet)
Download Torrent (File)
Seeds: 6
Leechers: 0
Completed:
Last Checked: 28-12-2018 23:40:03


Loading...
Details
Title:Divergent.2014.Multi.2160p.UHD.BluRay.x265.HDR.DTS-HDMA.7.1[En+Hi]-DTOne
Description:
I will seed up till 4 of You complete[color]
No More No Less
[/color]





SPECS

Source : UHD Bluray

Format                                   : Matroska
File size                                : 12.5 GiB
Duration                                 : 2 h 19 min
Overall bit rate mode                    : Variable
Overall bit rate                         : 12.8 Mb/s


Video
Format                                   : HEVC/x265
Commercial name                          : HDR
Bit rate                                 : 8 070 kb/s
Width                                    : 3 840 pixels
Height                                   : 1 600 pixels
Bit depth                                : 10 bits
Color primaries                          : BT.2020
Transfer characteristics                 : PQ
Matrix coefficients                      : BT.2020 non-constant
Mastering display color primaries        : Display P3
Mastering display luminance              : min: 0.0050 cd/m2, max: 4000 cd/m2

Audio #1
Format                                   : DTS XLL X
Format/Info                              : Digital Theater Systems
Commercial name                          : DTS-HD Master Audio
Codec ID                                 : A_DTS
Duration                                 : 2 h 19 min
Bit rate mode                            : Variable
Bit rate                                 : 4 511 kb/s
Channel(s)                               : 8 channels
Channel(s)_Original                      : Object Based
Channel layout                           : Object Based
Sampling rate                            : 48.0 kHz
Frame rate                               : 93.750 FPS (512 SPF)
Bit depth                                : 24 bits
Stream size                              : 4.40 GiB (35%)
Language                                 : English
Default                                  : Yes
Forced                                   : No

Audio #2
ID                                       : 3
Format                                   : AC-3
Format/Info                              : Audio Coding 3
Commercial name                          : Dolby Digital
Codec ID                                 : A_AC3
Duration                                 : 2 h 19 min
Bit rate mode                            : Constant
Bit rate                                 : 224 kb/s
Channel(s)                               : 6 channels
Channel layout                           : L R C LFE Ls Rs
Sampling rate                            : 44.1 kHz
Frame rate                               : 28.711 FPS (1536 SPF)
Bit depth                                : 16 bits
Compression mode                         : Lossy
Stream size                              : 224 MiB (2%)
Language                                 : Hindi


Subs:
En Sp

[size=4]Request for reseed of my Old Releases: HERE[/size]

[email protected]
Category:Movies > UltraHD/4K
Lang:English  English
Total Size:12.53 GB
Info Hash:29e93fa454a73fa70ddb42bcf4533a175937213a
Added By:DTOne
Date Added:28-12-2018 23:39:59

  

Files

File List: 
 File Size
A DT0ne Release !!!.txt287.00 B
Divergent.2014.Multi.2160p.UHD.BluRay.x265.HDR.DTS-HDMA.7.1[En+Hi]-DTOne.mkv12.53 GB
Torrent downloaded from Desitorrents.tv.txt28.00 B



Loading...
Comments

There are currently no comments. Be the first one to write something !

Disclaimer: None of the files shown here are actually hosted or transmitted by this server. The links are provided solely by this site's users. The site moderation is also a service provided by the site's users. The administrator of this site (ettv.tv) cannot be held responsible for what its users post, or any other actions of its users. You may not use this site to distribute or download any material when you do not have the legal rights to do so. It is your own responsibility to adhere to these terms.

Sitemap