sex the big bang theory Fortitude ETRG black mirror windows 10 christmas 1080p 2018 ethd 1080P 2018 ita bbc 0 WWE 2 a star is born xxx the walking dead 1 fantastic beasts hindi halloween 2018 bird box anal supernatural evo bumblebee ddr The Flash titans venom ita Ralph Breaks the Internet italian ettv venom animali fantastici game of thrones a simple favor black mirror bandersnatch Bandersnatch Aquaman ita 2018 you fortitude s03 outlander mary poppins fgt the predator Evo vikings s05e15 2160p porn bohemian rhapsody ita bohemian rhapsody IT ray donovan UHD etrg tushyraw 1080p.mp4-ktr etmovies Vikings dtone Dogfart summer big bang theory español arrow ita tushy 18.12 1080p.mp4-ktr Doctor Who Jurassic World AMICI COME PRIMA 
Warning! Do not Download Without a VPN!
Your IP Address is .   Location is
Download and surf securely, stream unlimited and protect your personal data!
We strongly recommend using SpyOFF VPN!
Become Anonymous with SpyOFF
ETTV Recommended TV Shows
Letterkenny.S06.720p.HULU.WEB-DL.AAC2.0.H.264-NTb[ettv] torrent
The.ABC.Murders.S01E02.WEBRip.x264-TBS[ettv] torrent
Into.The.Dark.2018.S01E04.720p.WEBRip.x264-TBS[ettv] torrent
Deadly.Class.S01E01.Reagan.Youth.720p.AMZN.WEB-DL.DDP5.1.H.264-NTG[ettv] torrent

ETTV Recommended SD
A Soldiers Creed.2018.HDRip.XviD.AC3-EVO torrent
White Rabbit 2018.HDRip.XviD.AC3-EVO torrent
The.Oath.2018.HDRip.XViD-ETRG torrent
When.the.Angels.Sleep.2018.HDRip.XviD.AC3-EVO torrent

ETTV Recommended HD
Bird Box (2018) 1080p NF WebDL DDP5.1 x264-DTOne torrent
I Am Vengeance (2018) 1080p NF WebDL DDP5.1 x264-DTOne torrent
The.Wolf.Catcher.2018.1080p.WEB-DL.DD5.1.H264-CMRG[EtHD] torrent
Apocalypse Now (1979) 1080p NF WebDL DDP5.1 x264-DTOne torrent

ETTV Recommended UHD
Argo.2012.Theatrical.Cut.MULTi.UHD.BluRay.2160p.x265.HDR.Atmos.7.1[En+Hi]-DTOne torrent
Criminal.2016.Multi.2160p.UHD.BluRay.x265.HDR.DTS-HDMA.5.1[En+Hi]-DTOne torrent
Man.of.Steel.2013.Multi.2160p.BluRay.x265..HDR.Atmos.7.1[En+Hi]-DTOne torrent
Warcraft.2016.Multi.2160p.UHD.BluRay.x265.Atmos.7.1[En+Hi+]-DTOne torrent

ETTV Recommended Cam
Aquaman.2018.HDTC.x264.AC3-ETRG torrent
Mary Poppins Returns.2018.HDCAM.XViD.AC3-ETRG torrent
The Mule 2018 HDCAM XViD.AC3-ETRG torrent
Bumblebee 2018 NEW HDTS x264 AC3-ETRG torrent

ETTV Recommended Foreign
Valiyavan (2018) 1080p UntoucheD WEBDL - Hindi - AVC - AAC - DTone. torrent
Udanchhoo (2018) 1080p AMZN WEB-DL DDP 5.1 ESub - DTOne torrent
BraveStorm.2017.1080p.WEB-DL.DD5.1.H264-RK[EtHD] torrent
SIMMBA.(2018).1-3.Desi.CAMRip.x264.AAC.DTOne torrent


Download Torrent "Cars.3.2017.Multi.2160p.UHD.BluRay.x265.HDR.Atmos.7.1.[En+Hi]-DTOne"

IMDB Details
Description:

Lightning McQueen sets out to prove to a new generation of racers that he's still the best race car in the world.

Genre:

Animation, Adventure, Comedy, Family, Sport

Download Torrent (Magnet)
Download Torrent (File)
Seeds: 3
Leechers: 0
Completed:
Last Checked: 28-12-2018 23:16:19


Loading...
Details
Title:Cars.3.2017.Multi.2160p.UHD.BluRay.x265.HDR.Atmos.7.1.[En+Hi]-DTOne
Description:
I will seed up till 4 of You complete[color]
No More No Less
[/color]






SPECS

Source : UHD Bluray

Format                                   : Matroska
File size                                : 12.6 GiB
Duration                                 : 1 h 42 min
Overall bit rate mode                    : Variable
Overall bit rate                         : 17.6 Mb/s


Video
Format                                   : HEVC/x265
Commercial name                          : HDR
Bit rate                                 : 11 Mb/s
Width                                    : 3 840 pixels
Height                                   : 1 608 pixels
Bit depth                                : 10 bits
Color primaries                          : BT.2020
Transfer characteristics                 : PQ
Matrix coefficients                      : BT.2020 non-constant
Mastering display color primaries        : Display P3
Mastering display luminance              : min: 0.0050 cd/m2, max: 1000 cd/m2


Audio
Format                                   : MLP FBA 16-ch
Format/Info                              : Meridian Lossless Packing FBA with 16-channel presentation
Commercial name                          : Dolby TrueHD with Dolby Atmos
Codec ID                                 : A_TRUEHD
Duration                                 : 1 h 28 min
Bit rate                                 : 4 896 kb/s
Maximum bit rate                         : 6 966 kb/s
Channel(s)                               : 8 channels
Channel layout                           : L R C LFE Ls Rs Lb Rb
Sampling rate                            : 48.0 kHz
Frame rate                               : 1 200.000 FPS (40 SPF)
Compression mode                         : Lossless
Stream size                              : 3.30 GiB (34%)
Language                                 : English

Audio #2
ID                                       : 3
Format                                   : AC-3
Format/Info                              : Audio Coding 3
Commercial name                          : Dolby Digital
Codec ID                                 : A_AC3
Duration                                 : 1 h 42 min
Bit rate mode                            : Constant
Bit rate                                 : 640 kb/s
Channel(s)                               : 6 channels
Channel layout                           : L R C LFE Ls Rs
Sampling rate                            : 48.0 kHz
Frame rate                               : 31.250 FPS (1536 SPF)
Bit depth                                : 16 bits
Compression mode                         : Lossy
Stream size                              : 469 MiB (4%)
Language                                 : English

Audio #3
ID                                       : 4
Format                                   : AC-3
Format/Info                              : Audio Coding 3
Commercial name                          : Dolby Digital
Codec ID                                 : A_AC3
Duration                                 : 1 h 42 min
Bit rate mode                            : Constant
Bit rate                                 : 640 kb/s
Channel(s)                               : 6 channels
Channel layout                           : L R C LFE Ls Rs
Sampling rate                            : 48.0 kHz
Frame rate                               : 31.250 FPS (1536 SPF)
Bit depth                                : 16 bits
Compression mode                         : Lossy
Stream size                              : 469 MiB (4%)
Language                                 : Hindi


Subs:
En  Sp

[size=4]Request for reseed of my Old Releases: HERE[/size]

[email protected]
Category:Movies > UltraHD/4K
Lang:English  English
Total Size:12.63 GB
Info Hash:567b7958ba4176185eea3946da220896940f7f40
Added By:DTOne
Date Added:28-12-2018 23:16:15

  

Files

File List: 
 File Size
A DT0ne Release !!!.txt287.00 B
Cars.3.2017.Multi.2160p.UHD.BluRay.x265.HDR.Atmos.7.1.[En+Hi]-DTOne.mkv12.63 GB
Torrent downloaded from Desitorrents.tv.txt28.00 B



Loading...
Comments

There are currently no comments. Be the first one to write something !

Disclaimer: None of the files shown here are actually hosted or transmitted by this server. The links are provided solely by this site's users. The site moderation is also a service provided by the site's users. The administrator of this site (ettv.tv) cannot be held responsible for what its users post, or any other actions of its users. You may not use this site to distribute or download any material when you do not have the legal rights to do so. It is your own responsibility to adhere to these terms.

Sitemap